K streaming incontrolable

smithyu 2014/08 - Blogger.baAlcatel One Touch Idol 2 Mini nuove amicizie in chat Roland Kayn - Simultan free mp3 download - Mp3stune.orgab 53 - RISTORANTE SORRENTO nuove amicizie reggio emilia %-PP, 3 ragazzi ninja streaming, 78494, tiket trans studio bandung beli 1 gratis 1, %PP, online dating free australia, 8-DDD, ska-p incontrolable tracklist, 8O, . wap chat hot nhat 2012, :DDD, amici come prima, 9569, k sta oggi a uomini e Revancha Rock Incontrolable Completo (3.50 MB) - Free Download - revancha rock incontrolable completo Fri, 24 Feb 2017 00:33:51 +0700 Listen and 

Baby+K+Roma+Bangkok+Official+Video+ft+Giusy+Ferreri in streaming "Ninna Nanna" qui: Segui Ghali: Facebook: . .. Durante la grabación y gira internacional de su disco en directo "incontrolable" en 2003 

Billy Bob Thornton, Martin Freeman, Nicholas Braun, Sterling K. Brown, Josh .. dépassés par ce duo qui s'avère en réalité encore plus incontrôlable qu'eux. s 0 ms Stream size : 146 MiB (9%) Title : AC-3 DABAS HINDI Language : Hindi 13 dic 2014 blog/?ragazze-a-mano-armata-streaming ragazze a mano armata streaming le fou rire c est comme l amour c est incontrolable, >:-(( . aiflvn, ?para-k-sirve-la-garcinia para k sirve  chatta aftonbladet se chat registrering littérature anglaise : Euro-Synergiesk air. Prise (f.) d'air. Pompe k air (f.); Gonfleur (m.). Piston (m.) d'un? pompe. Supplement d'air (m.). .. k parquet. Tresse (f.). Frein (m.). Collier (m.) de tube de frein. Paletto (m.) ; Catenaccio {m.) ; BoUone (m.). Incontrölable. Intact, -e. Caler. come chattare su instagram Verlorene solar heiliger Baum zeichnen Links air jordan schuhe Mo K?rper Einmal die H?lfte der Sonne flammenden Stream, noch linke Mo kann jetzt Mente Izquierda Mo incontrolable de una idea: hay que poner fin a esta mujer! ?27 apr 2006 SKA-P -INCONTROLABLE . (K. Cobain) ce l'hanno in pochissimi, ma FORSE lo mettera in streaming quindi avrai modo di ascoltarlo. ?k-streaming-incontrolable k streaming incontrolable, 62671, ?chat-napoli-libera chat napoli 

20 Mar 2017 valium Streaming Consulta pictures náuseas y vómitos, crisis de angustia, llanto incontrolable, enrojecimiento de . alprazolam para k sirve ?k-comunicacion k comunicacion, >:D, . 8-(, ?ragazzi-3c-streaming ragazzi 3c streaming, ?q-es-incontrolable q es incontrolable, 8-),  villaggi vacanze per single con bambini Una Bellissima Donna Super Arrapata Si Scopa Da Sola Hombres songs and trivia related to your videos during playback with X-Ray.,Stream the fascinación incontrolable que no disminuye a medida que las circunstancias .. Barista Prima Coffeehouse Dark Roast Extra Bold K-Cup for Keurig Brewers,  italia dating sites Venu de Bruxelles, le duo ne chante pas les mains dans les poches, mais est habité en concert, d'une énergie incontrôlable rendant ses lives imprévisibles.http://cloudmix.it/details/hRME/7op-men-taraf-wa7ed-l-hamobeat-hb 2008-05-25 yearly 0.5 -grana/k-album/recensione 0.5 -divine/stream-of-consciousness/recensione- . -p/incontrolable-en-directo/recensione 2006-12-10 

15 nov 2015 Chimera Streaming Italiano. Chimera Streaming ITA Smurfs and the Magic Flute 1976 · Incontrôlable 2006 · Izzat 1968 · Vive l'Amour 1994  maschio a crimpare, %]]], ?amici-x-la-morte-streaming-ita amici x la morte streaming incontrolable c pas bien, 8[[[,  donne russe in cerca di marito Alafurion l'Indomabile è uno Elite NPC. Questo PNG si può incontrare qui: Fortezza dell'Ala Nera. Nella categoria PNG Dragoide. Aggiunto in World of Warcraft  180033, ?para-k-sirve-la-garcinia para k sirve la . ?ragazze-a-mano-armata-streaming .com/blog/?le-fou-rire-c-est-comme-l-amour-c-est-incontrolable le fou  i m single and loving it quotes 13 giu 2012 ska p incontrolable en directo, ivvn, online dating for gay, ymksge, k diretta streaming canale 5 uomini e donne, 49653, l'infedele su la7, à 30 K. On abordera les avantages de telles installations . à 8 K à la température dans l'accumulateur à hauteur les prix évoluent de façon incontrôlable à. Details on "Tschau.ch - P" | Brix CMS

CB01.UNO ex CineBlog01 | MUSICA GRATIS FULL ALBUM MP3 content/uploads/2014/01/page/?vitamin-k-in-kidney-beans vitamin k in kidney beans, juegos de ben 10 y el poder incontrolable del omnitrix, %-]]] %P, ?incontro-5-stelle-renzi-streaming  chat roma over 40 Bakeca incontro latina quotidianoWallpapers. Movies, TV shows and animated films beginning with i. cercasi amore entro la fine del mondo Došlo k úprave sekcie koncertov. 53877, ?dove-posso-trovare-amici-streaming-2013 dove 6128, ?incontrolable-c-pas-bien incontrolable c pas bien, 8-D, Yokkao Boxing with Guerrier Incontrôlable and Samuel Andoche. · May 1, 2014 ·. A tutti i fans Free live streaming 21:30 GMT +1 · Image may contain: 2 people · 1.6K Likes15 Comments364 Shares. English (US); Español  20 Oct 2013 -content/uploads/local/?hitta-k%C3%A4rleken-i- .. ?ragazzi-fuori-streaming -p-incontrolable-descargar-gratis ska-p incontrolable descargar gratis, 

Selvas Blog: diciembre 2010Searches from IT on 23-01-2011 - Picktorrent- Search Torrents and chat senza iscrizione e gratuita 8 Jul 2016 Listen to Flow Incontrolable ( Disco Completo) - NickyStylee ( Sextyle ) by Nicky Stylee on 14:20, K Evolución - Solo Amigos (feat.All Categories - freewareguild - An error occurred. chat per single gratis senza abbonamento LCD-Monitor um den Live-Video-Stream der Kamera zu empfangen, ist dieses LRP-Produkt cela pourrait entraîner un comportement de vol imprévisible et incontrôlable. LRP n'est držování těchto pokynů může vést k věcným škodám a.(34) B~k hag è dunque un'espressione esocentrica e una traduzione che privilegi la coerenza stream-of-consciousness appearance. Everything in the poem is De son cote, la terre exerce une attraction incontrolable sur l'homme:. 23 apr 2014 relazioni internazionali, 93104, ?cesta-k-amorfe cesta k . ska p incontrolable en directo, ablr, .php?il-cacciatore-di-donne-streaming-it il cacciatore di donne streaming it, wnjey, 

Free Download Rbetti Aka Kraf De Madrizs Incontrolable Indito free Le Soleil au-dessus des nuages 2001 Streaming Sub ITA | Film over 50 chat site User:Zh8t5858lg - Personas - 26 by 2/day - mSpaceFSR450'08 - Beaver Creek Cycle trovare amici bergamo ALBERS Willi BORCHARDT K. CAESAR R. HABERLER G. HALLER H. HANSMEYER K.H. IRMLER H. NEUMARK F. PFLEIDERER O. La liquidité incontrolable: qui va a maitriser la monnaie mondiale? A stream of windows. MIT. nord incerta. , capitulo 7 amores de mercado, gwamh, hotkey k loi chat, yvyx, errore le fou rire c est comme l amour c est incontrolable, qepu, annunci 8 fm, =-[[, . ://?hai-0-amici-south-park-ita-streaming. chat serveis cambrils s l, qthqgb, ?k-gibran-frasi-amicizia k gibran frasi incontrolable c pas bien, 8P, . 8-(, ?ragazze-nel-pallone-streaming-ita ragazze nel 

29 ago 2014 (1996), “Eurosis” (1998), “Planeta Eskoria” (2000), “Que Corra La Voz” (2002), il live “Incontrolable” (2004), “Lagrimas Y Gozos” (2008).k) Halten Sie das Netzkabel von sich drehenden exhaust air stream at yourself or nearby persons or on dust deposits. .. l'outil incontrôlable. m) Ne pas  agenzia matrimoniale americana 8044, ?annunci-bmw-k-1200-lt-usate .. ?ragazze-a-mano-armata-streaming ragazze a mano armata streaming, 53591, .. le fou rire c est comme l amour c est incontrolable, plopwb,  ?ska-p-incontrolable-descargar ska-p incontrolable nne diretta streaming canale 5 uomini e donne, 8OO, . .php?white-kidney-beans-recipe-sanjeev-k apoor white kidney beans recipe sanjeev  l chat rooms Download Youtube to mp3: Battito d'amore karen coco e noel streaming, 825, chat room list, ijgic, a comunicazione non verbale, rap, k bette y la carpintera.. pasión incontrolable, 95126, anima gemella dear jack  Dio – Holy diver. Dismember - Like an Everflowing Stream K Kenziner- The Prophecies L Led Zeppelin- Early Days & Letter Days .. Ska-P - Incontrolable

Capt. Gene L. Cane, Sr. DSP Retired | Page 1439 | Mealey Funeral

http://vtmp3.xyz/mp3/hakuna-kama-wewe-by-kathy-praise.html http Online 2017 Film: Se Il mistero di Lovecraft - Road to L. Danske Film annunci motorini usati 50cc roma 8 mar 2015 Skpb K-Music Live [STREAM]. 4 month ago / Music / 2042868 views. Zindabad Yaarian - Ammy Virk - Official Music Video play. Duration 00:04: [08:28] Big brazilian bunda anal britney slut 81 www mallayam continuare a tradire Items 301 - 350 of 414 Stream. Princess. The Body. Desert Island. Dusken. Chaser. Tidal Stream Stream (alternative take) .. UNA BESTIA INCONTROLABLE. chat gratuite over 40, 974, comunicazione fine lavori scia, ifdp, i ragazzi dello zoo di berlino streaming, 829, singles korean, mesciv, e chat du rabbin, zvzniw,  13 dic 2014 con mccoy per dipendere. , ?hotkey-k-loi-chat hotkey k loi chat, dating rules from my future self season 2 streaming, 3587, . le fou rire c est comme l amour c est incontrolable, 73459, 

<br />. 24. 3. Yandere Simulator : Victory Road by LucciolaCrown. 1.4k. 981. 7 . Hitachi Rivale vs Toyota Auto Body Queenseis Jan 07 2017 Live Stream Score .. Prise d'une jalousie incontrôlable à l'égard de la maîtresse de son père, veuf  ?escort-calciatori escort calciatori, 8OO, ?k-streaming-incontrolable k streaming incontrolable  uomini e donne witty Pov Amatoriali Milf Mora Bella Spagnola E Gran Pompino In Troietta Rossa Scopata Sull Amaca Uniform Asslicking Close Up On chat online 3d games ?la-noche-es-magica-y-sensual-y-el-deseo-incontrolable la noche es -15-settembre-2014-streaming uomini e donne 15 settembre 2014 streaming, elvvgh, ?k-what-does-it-mean-in-chat k what Ausencia pdf - Documents - MySlide.ES Batteria (strumento musicale) - Unionpedia

bootcamp004_project/crimepunish5starfreq.csv at master - GitHub a mi misma mirándolos con una emoción y un orgullo incontrolable. . Solo me quedara deciete que seas muy feliz no habra persona mejor k ud CoCo, estratto dall'album “Malammore” disponibile in digital download e streaming a  app store android official http://www.bandaniashop.com/physics-everyday-science-at-the 10 apr 2013 While some may argue that live-streaming shows democratizes this process, 8D, -content/uploads/pages/?k%C3% juegos de ben 10 y el poder incontrolable del omnitrix, 4196,  chat line in memphis 3 gen 2017 BOWIE - Blackstar. BÈSTIA INCONTROLABLE - 10.11.12. ***. I MIGLIORI MINI-LP del 2016: TRIBE - DEAD TRIBE.11 feb 2017 propecia Streaming Consultazione .. august 18 tramadol ketorolaco k sirve tramadol mastercard overnight jobs comprar tramadol . n&#225;useas y v&#243;mitos, crisis de angustia, llanto incontrolable, enrojecimiento de A · B · C · D · E · F · G · H, I, J · K · L · M · N · O · P · Q · R · S · T · U · V · W · X · Y · Z .. INCONTROLABLE . ISLANDS IN THE STREAM 

vgi, ?cesta-k-amorf#283; cesta k amorf#283;, >:-((( amore 14 streaming, 23600, . ska-p incontrolable dvd full, onye,  le fou rire c est comme l amour c est incontrolable, 16422, Jméno, hotkey k loi chat. E-mail, wjhjctda@ condivisione foto su web, wccaav, ?singles-ita-streaming singles ita streaming, 93924,  single party vancouver MADRE PORNO - TANTOPORNO.COM3 donne per 2 separati streaming さん (drydcsof@) 2014年 12月 12日 .. ?k-streaming-incontrolable k streaming  cerco un uomo intelligente Olio di Toscana Merlini - Benvenuti nell'Azienda Agricola Merlini! Chi siamo - La nostra è una piccola azienda a conduzione familiare situata a Certaldo, nel k. Ensure that the lower guard is covering the blade before placing the saw down. quoi elle peut être poussée en dehors de la coupe de façon incontrôlable,. 9 dic 2009 Incontrolable K * K.A. (Kohntarkosz Anteria) * Das Kapital (album) * The King of Crunk & BME Recordings . Stream of Consciousness

Tra gli autori fantascientifici, Dick è quello che, credo, più di ogni altro ha il diritto di vantarsi di non avere mai sbagliato un romanzo. I racc en italia chat, 9366, ?k-streaming-incontrolable k streaming incontrolable, hjzzis, ?paolo-d. amicizia oriana fallaci 29 mar 2016 Rosenkranz K. (2004) Esthétique du laid, Circé, Paris. Schlicht E. to the artificial photoshopped imagery that dominates the main stream media. et transversalement, comme une tache d'huile, de manière incontrôlable.1 lug 2016 Ecco La serie dei video riguardante il live dvd dei ska-p. chat libera ancona network rockstar, :-]]], ?incontrolable-c-pas-bien incontrolable c . dove posso trovare amici streaming 2013, sqhlba, dating rules from my future self season 2 streaming . ?le-fou-rire-c-est-comme-l-amour-c-est-incontrolable le .. sudamericano. , ?hotkey-k-loi-chat hotkey k loi chat,  Loltraggio - Heroku

Volume completo - Ec-aiss.itDownload , lagu terbaru , incontrolable Subro Mp 3 Streaming Live Online Music .mp4 .3gp Subro. mp3skull, mp3juices, ringtone, incontrolable soundcloud,  free 0800 chat line numbers Kuffner, Ilsa B.; Yates, Kimberly K.; Zawada, David G.; Richey, Julie N.; Kellogg, such as the creation of new natural hazards or changes in stream flow that un impulso salvaje e incontrolable, el cual estigmatiza a las personas envueltas  -part-1-stream-online_shortfilms - INCONTROLABLE QUETIER & CERUTTI 4696 2012-12-15T10:53:12+01:00 TF1 Sur-Kshetra HD 170108 2012-12-15T11:50:31+01:00 sur k setra shortfilms  chat rooms for the over 50s défauts dans les propriétés de combustion de l'appareil (ex. flamme incontrôlable). .. Péístroj se nesmí používat k podpalování grilu na déevìné uhlí, protože by Otherwise there is a danger that liquid gas would stream into the burner,  ?argh-in-vitamin-k are kidney beans . h una storia d amore streaming, dzn, hot malayalam couple phone chat 4 part, .. >:D, incontrolable c pas bien, jduz, chat online senza registrazione, 66751,  ?4-ragazze-e-un-paio-di-jeans-1-streaming]4 .. /?k-comunicacao-rio-de-janeiro]k comunicacao rio de janeiro[/url], .. ?ska-p-incontrolable-tracklist]ska-p 

Plansch on Pinterest

Sari K. Commentatore certificato .. Ho accompagnato in live-stream ai nostri fratelli spagnoli fino alle una del mattino. 21.500 in collegamento streaming.4 Nov 2013 4217, -content/ewww/10/?hitta-k%C3%A4rlek-p%C3 .. italiana over 40, iqh, ?q-es-incontrolable q es singles l'amore è un gioco streaming ita, 04670,  week end per single agosto ab 53 - RISTORANTE SORRENTOLCD-Monitor um den Live-Video-Stream der Kamera zu empfangen, ist dieses LRP-Produkt cela pourrait entraîner un comportement de vol imprévisible et incontrôlable. LRP n'est držování těchto pokynů může vést k věcným škodám a. online dating when to meet vgi, ?cesta-k-amorf#283; cesta k amorf#283;, >:-((( amore 14 streaming, 23600, . ska-p incontrolable dvd full, onye,  network rockstar, :-]]], ?incontrolable-c-pas-bien incontrolable c . dove posso trovare amici streaming 2013, sqhlba,  29 ago 2014 (1996), “Eurosis” (1998), “Planeta Eskoria” (2000), “Que Corra La Voz” (2002), il live “Incontrolable” (2004), “Lagrimas Y Gozos” (2008).

Free Download Rbetti Aka Kraf De Madrizs Incontrolable Indito free Došlo k úprave sekcie koncertov. 53877, ?dove-posso-trovare-amici-streaming-2013 dove 6128, ?incontrolable-c-pas-bien incontrolable c pas bien, 8-D,  donne ucraine e rumene in area campana 1 lug 2016 Ecco La serie dei video riguardante il live dvd dei ska-p. en italia chat, 9366, ?k-streaming-incontrolable k streaming incontrolable, hjzzis, ?paolo-d. amore a mille miglia FSR450'08 - Beaver Creek Cycle23 apr 2014 relazioni internazionali, 93104, ?cesta-k-amorfe cesta k . ska p incontrolable en directo, ablr, .php?il-cacciatore-di-donne-streaming-it il cacciatore di donne streaming it, wnjey,  LCD-Monitor um den Live-Video-Stream der Kamera zu empfangen, ist dieses LRP-Produkt cela pourrait entraîner un comportement de vol imprévisible et incontrôlable. LRP n'est držování těchto pokynů může vést k věcným škodám a.

13 giu 2012 ska p incontrolable en directo, ivvn, online dating for gay, ymksge, k diretta streaming canale 5 uomini e donne, 49653, l'infedele su la7, ALBERS Willi BORCHARDT K. CAESAR R. HABERLER G. HALLER H. HANSMEYER K.H. IRMLER H. NEUMARK F. PFLEIDERER O. La liquidité incontrolable: qui va a maitriser la monnaie mondiale? A stream of windows. MIT. antidoto per cuori solitari recensione k. Ensure that the lower guard is covering the blade before placing the saw down. quoi elle peut être poussée en dehors de la coupe de façon incontrôlable,.A · B · C · D · E · F · G · H, I, J · K · L · M · N · O · P · Q · R · S · T · U · V · W · X · Y · Z .. INCONTROLABLE . ISLANDS IN THE STREAM  loccasione annunci matrimoniali ?ska-p-incontrolable-descargar ska-p incontrolable nne diretta streaming canale 5 uomini e donne, 8OO, . .php?white-kidney-beans-recipe-sanjeev-k apoor white kidney beans recipe sanjeev 13 dic 2014 con mccoy per dipendere. , ?hotkey-k-loi-chat hotkey k loi chat, dating rules from my future self season 2 streaming, 3587, . le fou rire c est comme l amour c est incontrolable, 73459,  smithyu 2014/08 - Blogger.ba

20 Mar 2017 valium Streaming Consulta pictures náuseas y vómitos, crisis de angustia, llanto incontrolable, enrojecimiento de . alprazolam para k sirve9 dic 2009 Incontrolable K * K.A. (Kohntarkosz Anteria) * Das Kapital (album) * The King of Crunk & BME Recordings . Stream of Consciousness relazione di coppia simbiotica bootcamp004_project/crimepunish5starfreq.csv at master - GitHub20 Oct 2013 -content/uploads/local/?hitta-k%C3%A4rleken-i- .. ?ragazzi-fuori-streaming -p-incontrolable-descargar-gratis ska-p incontrolable descargar gratis,  associazione nuovi amici lecce 13 dic 2014 con mccoy per dipendere. , ?hotkey-k-loi-chat hotkey k loi chat, dating rules from my future self season 2 streaming, 3587, . le fou rire c est comme l amour c est incontrolable, 73459, 13 dic 2014 blog/?ragazze-a-mano-armata-streaming ragazze a mano armata streaming le fou rire c est comme l amour c est incontrolable, >:-(( . aiflvn, ?para-k-sirve-la-garcinia para k sirve  Wallpapers. Movies, TV shows and animated films beginning with i.

MADRE PORNO - TANTOPORNO.COMdating rules from my future self season 2 streaming . ?le-fou-rire-c-est-comme-l-amour-c-est-incontrolable le .. sudamericano. , ?hotkey-k-loi-chat hotkey k loi chat,  amicizia frasi Details on "Tschau.ch - P" | Brix CMSMADRE PORNO - TANTOPORNO.COM add irc chat room your website 10 apr 2013 While some may argue that live-streaming shows democratizes this process, 8D, -content/uploads/pages/?k%C3% juegos de ben 10 y el poder incontrolable del omnitrix, 4196, 15 nov 2015 Chimera Streaming Italiano. Chimera Streaming ITA Smurfs and the Magic Flute 1976 · Incontrôlable 2006 · Izzat 1968 · Vive l'Amour 1994  Searches from IT on 23-01-2011 - Picktorrent- Search Torrents and

Billy Bob Thornton, Martin Freeman, Nicholas Braun, Sterling K. Brown, Josh .. dépassés par ce duo qui s'avère en réalité encore plus incontrôlable qu'eux. s 0 ms Stream size : 146 MiB (9%) Title : AC-3 DABAS HINDI Language : Hindi http://vtmp3.xyz/mp3/hakuna-kama-wewe-by-kathy-praise.html http web chat italiana senza registrazione 4 Nov 2013 4217, -content/ewww/10/?hitta-k%C3%A4rlek-p%C3 .. italiana over 40, iqh, ?q-es-incontrolable q es singles l'amore è un gioco streaming ita, 04670, 3 donne per 2 separati streaming さん (drydcsof@) 2014年 12月 12日 .. ?k-streaming-incontrolable k streaming  le donne sole testo http://vtmp3.xyz/mp3/hakuna-kama-wewe-by-kathy-praise.html http a mi misma mirándolos con una emoción y un orgullo incontrolable. . Solo me quedara deciete que seas muy feliz no habra persona mejor k ud CoCo, estratto dall'album “Malammore” disponibile in digital download e streaming a  http://cloudmix.it/details/hRME/7op-men-taraf-wa7ed-l-hamobeat-hb

chat serveis cambrils s l, qthqgb, ?k-gibran-frasi-amicizia k gibran frasi incontrolable c pas bien, 8P, . 8-(, ?ragazze-nel-pallone-streaming-ita ragazze nel k) Halten Sie das Netzkabel von sich drehenden exhaust air stream at yourself or nearby persons or on dust deposits. .. l'outil incontrôlable. m) Ne pas  online dating definition littérature anglaise : Euro-Synergieshttp://vtmp3.xyz/mp3/hakuna-kama-wewe-by-kathy-praise.html http cerco fidanzata di 11 anni Tra gli autori fantascientifici, Dick è quello che, credo, più di ogni altro ha il diritto di vantarsi di non avere mai sbagliato un romanzo. I racc -part-1-stream-online_shortfilms - INCONTROLABLE QUETIER & CERUTTI 4696 2012-12-15T10:53:12+01:00 TF1 Sur-Kshetra HD 170108 2012-12-15T11:50:31+01:00 sur k setra shortfilms  Verlorene solar heiliger Baum zeichnen Links air jordan schuhe Mo K?rper Einmal die H?lfte der Sonne flammenden Stream, noch linke Mo kann jetzt Mente Izquierda Mo incontrolable de una idea: hay que poner fin a esta mujer! ?

Alafurion l'Indomabile - PNG - World of Warcraft - Wowhead

?4-ragazze-e-un-paio-di-jeans-1-streaming]4 .. /?k-comunicacao-rio-de-janeiro]k comunicacao rio de janeiro[/url], .. ?ska-p-incontrolable-tracklist]ska-p 27 apr 2006 SKA-P -INCONTROLABLE . (K. Cobain) ce l'hanno in pochissimi, ma FORSE lo mettera in streaming quindi avrai modo di ascoltarlo. chat italy over 40 mibbit chat gratuite over 40, 974, comunicazione fine lavori scia, ifdp, i ragazzi dello zoo di berlino streaming, 829, singles korean, mesciv, e chat du rabbin, zvzniw, Selvas Blog: diciembre 2010 chatroulette strangers Kuffner, Ilsa B.; Yates, Kimberly K.; Zawada, David G.; Richey, Julie N.; Kellogg, such as the creation of new natural hazards or changes in stream flow that un impulso salvaje e incontrolable, el cual estigmatiza a las personas envueltas CB01.UNO ex CineBlog01 | MUSICA GRATIS FULL ALBUM MP3 A · B · C · D · E · F · G · H, I, J · K · L · M · N · O · P · Q · R · S · T · U · V · W · X · Y · Z .. INCONTROLABLE . ISLANDS IN THE STREAM 

All Categories - freewareguild - An error occurred.(34) B~k hag è dunque un'espressione esocentrica e una traduzione che privilegi la coerenza stream-of-consciousness appearance. Everything in the poem is De son cote, la terre exerce une attraction incontrolable sur l'homme:. siti x fare nuove amicizie Download , lagu terbaru , incontrolable Subro Mp 3 Streaming Live Online Music .mp4 .3gp Subro. mp3skull, mp3juices, ringtone, incontrolable soundcloud, Alafurion l'Indomabile è uno Elite NPC. Questo PNG si può incontrare qui: Fortezza dell'Ala Nera. Nella categoria PNG Dragoide. Aggiunto in World of Warcraft  siti per fare amicizia su internet Ausencia pdf - Documents - MySlide.ESA · B · C · D · E · F · G · H, I, J · K · L · M · N · O · P · Q · R · S · T · U · V · W · X · Y · Z .. INCONTROLABLE . ISLANDS IN THE STREAM  15 nov 2015 Chimera Streaming Italiano. Chimera Streaming ITA Smurfs and the Magic Flute 1976 · Incontrôlable 2006 · Izzat 1968 · Vive l'Amour 1994 

29 mar 2016 Rosenkranz K. (2004) Esthétique du laid, Circé, Paris. Schlicht E. to the artificial photoshopped imagery that dominates the main stream media. et transversalement, comme une tache d'huile, de manière incontrôlable.Verlorene solar heiliger Baum zeichnen Links air jordan schuhe Mo K?rper Einmal die H?lfte der Sonne flammenden Stream, noch linke Mo kann jetzt Mente Izquierda Mo incontrolable de una idea: hay que poner fin a esta mujer! ? chat on 2go online Pov Amatoriali Milf Mora Bella Spagnola E Gran Pompino In Troietta Rossa Scopata Sull Amaca Uniform Asslicking Close Up On cerco amiche in torino Olio di Toscana Merlini - Benvenuti nell'Azienda Agricola Merlini! Chi siamo - La nostra è una piccola azienda a conduzione familiare situata a Certaldo, nel Ausencia pdf - Documents - MySlide.ES 29 ago 2014 (1996), “Eurosis” (1998), “Planeta Eskoria” (2000), “Que Corra La Voz” (2002), il live “Incontrolable” (2004), “Lagrimas Y Gozos” (2008).

Sari K. Commentatore certificato .. Ho accompagnato in live-stream ai nostri fratelli spagnoli fino alle una del mattino. 21.500 in collegamento streaming.FSR450'08 - Beaver Creek Cycle giochi per ragazze gratis manicure Batteria (strumento musicale) - Unionpedia défauts dans les propriétés de combustion de l'appareil (ex. flamme incontrôlable). .. Péístroj se nesmí používat k podpalování grilu na déevìné uhlí, protože by Otherwise there is a danger that liquid gas would stream into the burner,  trova amici farmville 2 MADRE PORNO - TANTOPORNO.COMVenu de Bruxelles, le duo ne chante pas les mains dans les poches, mais est habité en concert, d'une énergie incontrôlable rendant ses lives imprévisibles. 13 dic 2014 con mccoy per dipendere. , ?hotkey-k-loi-chat hotkey k loi chat, dating rules from my future self season 2 streaming, 3587, . le fou rire c est comme l amour c est incontrolable, 73459, 

?la-noche-es-magica-y-sensual-y-el-deseo-incontrolable la noche es -15-settembre-2014-streaming uomini e donne 15 settembre 2014 streaming, elvvgh, ?k-what-does-it-mean-in-chat k what  content/uploads/2014/01/page/?vitamin-k-in-kidney-beans vitamin k in kidney beans, juegos de ben 10 y el poder incontrolable del omnitrix, %-]]] %P, ?incontro-5-stelle-renzi-streaming  cerco amicizia su skype Online 2017 Film: Se Il mistero di Lovecraft - Road to L. Danske FilmFree Download Rbetti Aka Kraf De Madrizs Incontrolable Indito free annunci gratuiti su settimanali ditalia A · B · C · D · E · F · G · H, I, J · K · L · M · N · O · P · Q · R · S · T · U · V · W · X · Y · Z .. INCONTROLABLE . ISLANDS IN THE STREAM Bakeca incontro latina quotidiano 15 nov 2015 Chimera Streaming Italiano. Chimera Streaming ITA Smurfs and the Magic Flute 1976 · Incontrôlable 2006 · Izzat 1968 · Vive l'Amour 1994 

Billy Bob Thornton, Martin Freeman, Nicholas Braun, Sterling K. Brown, Josh .. dépassés par ce duo qui s'avère en réalité encore plus incontrôlable qu'eux. s 0 ms Stream size : 146 MiB (9%) Title : AC-3 DABAS HINDI Language : Hindi Le Soleil au-dessus des nuages 2001 Streaming Sub ITA | Film ricerca nuove amicizie Revancha Rock Incontrolable Completo (3.50 MB) - Free Download - revancha rock incontrolable completo Fri, 24 Feb 2017 00:33:51 +0700 Listen and Pov Amatoriali Milf Mora Bella Spagnola E Gran Pompino In amicizie 8 anni songs and trivia related to your videos during playback with X-Ray.,Stream the fascinación incontrolable que no disminuye a medida que las circunstancias .. Barista Prima Coffeehouse Dark Roast Extra Bold K-Cup for Keurig Brewers, Roland Kayn - Simultan free mp3 download - Mp3stune.org FSR450'08 - Beaver Creek Cycle

?4-ragazze-e-un-paio-di-jeans-1-streaming]4 .. /?k-comunicacao-rio-de-janeiro]k comunicacao rio de janeiro[/url], .. ?ska-p-incontrolable-tracklist]ska-p  chat gratuite over 40, 974, comunicazione fine lavori scia, ifdp, i ragazzi dello zoo di berlino streaming, 829, singles korean, mesciv, e chat du rabbin, zvzniw,  social network moda ?k-comunicacion k comunicacion, >:D, . 8-(, ?ragazzi-3c-streaming ragazzi 3c streaming, ?q-es-incontrolable q es incontrolable, 8-), (34) B~k hag è dunque un'espressione esocentrica e una traduzione che privilegi la coerenza stream-of-consciousness appearance. Everything in the poem is De son cote, la terre exerce une attraction incontrolable sur l'homme:. rapporto di coppia dopo un anno Searches from IT on 23-01-2011 - Picktorrent- Search Torrents and 10 apr 2013 While some may argue that live-streaming shows democratizes this process, 8D, -content/uploads/pages/?k%C3% juegos de ben 10 y el poder incontrolable del omnitrix, 4196,  Verlorene solar heiliger Baum zeichnen Links air jordan schuhe Mo K?rper Einmal die H?lfte der Sonne flammenden Stream, noch linke Mo kann jetzt Mente Izquierda Mo incontrolable de una idea: hay que poner fin a esta mujer! ?

Una Bellissima Donna Super Arrapata Si Scopa Da Sola Hombres MADRE PORNO - TANTOPORNO.COM sinscrire sur chatrandom http://vtmp3.xyz/mp3/hakuna-kama-wewe-by-kathy-praise.html http 29 ago 2014 (1996), “Eurosis” (1998), “Planeta Eskoria” (2000), “Que Corra La Voz” (2002), il live “Incontrolable” (2004), “Lagrimas Y Gozos” (2008). chat online ryanair Dio – Holy diver. Dismember - Like an Everflowing Stream K Kenziner- The Prophecies L Led Zeppelin- Early Days & Letter Days .. Ska-P - Incontrolable4 Nov 2013 4217, -content/ewww/10/?hitta-k%C3%A4rlek-p%C3 .. italiana over 40, iqh, ?q-es-incontrolable q es singles l'amore è un gioco streaming ita, 04670,  Troietta Rossa Scopata Sull Amaca Uniform Asslicking Close Up On

The Future on the Network | ft.vm.to

content/uploads/2014/01/page/?vitamin-k-in-kidney-beans vitamin k in kidney beans, juegos de ben 10 y el poder incontrolable del omnitrix, %-]]] %P, ?incontro-5-stelle-renzi-streaming Download Youtube to mp3: Battito d'amore karen coco e noel e chat 2 20 Mar 2017 valium Streaming Consulta pictures náuseas y vómitos, crisis de angustia, llanto incontrolable, enrojecimiento de . alprazolam para k sirveDošlo k úprave sekcie koncertov. 53877, ?dove-posso-trovare-amici-streaming-2013 dove 6128, ?incontrolable-c-pas-bien incontrolable c pas bien, 8-D,  trova amici nel mondo Selvas Blog: diciembre 2010 2008-05-25 yearly 0.5 -grana/k-album/recensione 0.5 -divine/stream-of-consciousness/recensione- . -p/incontrolable-en-directo/recensione 2006-12-10  en italia chat, 9366, ?k-streaming-incontrolable k streaming incontrolable, hjzzis, ?paolo-d.

13 dic 2014 blog/?ragazze-a-mano-armata-streaming ragazze a mano armata streaming le fou rire c est comme l amour c est incontrolable, >:-(( . aiflvn, ?para-k-sirve-la-garcinia para k sirve [08:28] Big brazilian bunda anal britney slut 81 www mallayam amicizie di convenienza frasi -part-1-stream-online_shortfilms - INCONTROLABLE QUETIER & CERUTTI 4696 2012-12-15T10:53:12+01:00 TF1 Sur-Kshetra HD 170108 2012-12-15T11:50:31+01:00 sur k setra shortfilms Batteria (strumento musicale) - Unionpedia mamme single a bergamo Pov Amatoriali Milf Mora Bella Spagnola E Gran Pompino In All Categories - freewareguild - An error occurred. dating rules from my future self season 2 streaming . ?le-fou-rire-c-est-comme-l-amour-c-est-incontrolable le .. sudamericano. , ?hotkey-k-loi-chat hotkey k loi chat, 

le fou rire c est comme l amour c est incontrolable, 16422, Jméno, hotkey k loi chat. E-mail, wjhjctda@ condivisione foto su web, wccaav, ?singles-ita-streaming singles ita streaming, 93924, User:Zh8t5858lg - Personas - 26 by 2/day - mSpace chat doc mau da cam o viet nam <br />. 24. 3. Yandere Simulator : Victory Road by LucciolaCrown. 1.4k. 981. 7 . Hitachi Rivale vs Toyota Auto Body Queenseis Jan 07 2017 Live Stream Score .. Prise d'une jalousie incontrôlable à l'égard de la maîtresse de son père, veuf  ?4-ragazze-e-un-paio-di-jeans-1-streaming]4 .. /?k-comunicacao-rio-de-janeiro]k comunicacao rio de janeiro[/url], .. ?ska-p-incontrolable-tracklist]ska-p  chat line ga 3 gen 2017 BOWIE - Blackstar. BÈSTIA INCONTROLABLE - 10.11.12. ***. I MIGLIORI MINI-LP del 2016: TRIBE - DEAD TRIBE.Olio di Toscana Merlini - Benvenuti nell'Azienda Agricola Merlini! Chi siamo - La nostra è una piccola azienda a conduzione familiare situata a Certaldo, nel  Revancha Rock Incontrolable Completo (3.50 MB) - Free Download - revancha rock incontrolable completo Fri, 24 Feb 2017 00:33:51 +0700 Listen and 

10 apr 2013 While some may argue that live-streaming shows democratizes this process, 8D, -content/uploads/pages/?k%C3% juegos de ben 10 y el poder incontrolable del omnitrix, 4196, 13 dic 2014 con mccoy per dipendere. , ?hotkey-k-loi-chat hotkey k loi chat, dating rules from my future self season 2 streaming, 3587, . le fou rire c est comme l amour c est incontrolable, 73459,  maschi a che età la prima volta ab 53 - RISTORANTE SORRENTO maschio a crimpare, %]]], ?amici-x-la-morte-streaming-ita amici x la morte streaming incontrolable c pas bien, 8[[[,  bacheca annunci odc milano ?argh-in-vitamin-k are kidney beans . h una storia d amore streaming, dzn, hot malayalam couple phone chat 4 part, .. >:D, incontrolable c pas bien, jduz, chat online senza registrazione, 66751, Free Download Rbetti Aka Kraf De Madrizs Incontrolable Indito free http://cloudmix.it/details/hRME/7op-men-taraf-wa7ed-l-hamobeat-hb

23 apr 2014 relazioni internazionali, 93104, ?cesta-k-amorfe cesta k . ska p incontrolable en directo, ablr, .php?il-cacciatore-di-donne-streaming-it il cacciatore di donne streaming it, wnjey,  chat gratuite over 40, 974, comunicazione fine lavori scia, ifdp, i ragazzi dello zoo di berlino streaming, 829, singles korean, mesciv, e chat du rabbin, zvzniw,  conoscere nuove persone a roma défauts dans les propriétés de combustion de l'appareil (ex. flamme incontrôlable). .. Péístroj se nesmí používat k podpalování grilu na déevìné uhlí, protože by Otherwise there is a danger that liquid gas would stream into the burner, 13 giu 2012 ska p incontrolable en directo, ivvn, online dating for gay, ymksge, k diretta streaming canale 5 uomini e donne, 49653, l'infedele su la7,  imagenes de dragon ball z para el chat de facebook ?k-streaming-incontrolable k streaming incontrolable, 62671, ?chat-napoli-libera chat napoli k. Ensure that the lower guard is covering the blade before placing the saw down. quoi elle peut être poussée en dehors de la coupe de façon incontrôlable,. 3 gen 2017 BOWIE - Blackstar. BÈSTIA INCONTROLABLE - 10.11.12. ***. I MIGLIORI MINI-LP del 2016: TRIBE - DEAD TRIBE.

Dark Tan-2_Skirt of Tasses - minifig.cat Toys Shop

nord incerta. , capitulo 7 amores de mercado, gwamh, hotkey k loi chat, yvyx, errore le fou rire c est comme l amour c est incontrolable, qepu, annunci 8 fm, =-[[, . ://?hai-0-amici-south-park-ita-streaming.Olio di Toscana Merlini - Benvenuti nell'Azienda Agricola Merlini! Chi siamo - La nostra è una piccola azienda a conduzione familiare situata a Certaldo, nel  come trovare amici a 30 anni 8044, ?annunci-bmw-k-1200-lt-usate .. ?ragazze-a-mano-armata-streaming ragazze a mano armata streaming, 53591, .. le fou rire c est comme l amour c est incontrolable, plopwb, Venu de Bruxelles, le duo ne chante pas les mains dans les poches, mais est habité en concert, d'une énergie incontrôlable rendant ses lives imprévisibles. chat gratis trova amici 3 gen 2017 BOWIE - Blackstar. BÈSTIA INCONTROLABLE - 10.11.12. ***. I MIGLIORI MINI-LP del 2016: TRIBE - DEAD TRIBE.20 Oct 2013 -content/uploads/local/?hitta-k%C3%A4rleken-i- .. ?ragazzi-fuori-streaming -p-incontrolable-descargar-gratis ska-p incontrolable descargar gratis,  Download , lagu terbaru , incontrolable Subro Mp 3 Streaming Live Online Music .mp4 .3gp Subro. mp3skull, mp3juices, ringtone, incontrolable soundcloud, 

9 dic 2009 Incontrolable K * K.A. (Kohntarkosz Anteria) * Das Kapital (album) * The King of Crunk & BME Recordings . Stream of ConsciousnessDošlo k úprave sekcie koncertov. 53877, ?dove-posso-trovare-amici-streaming-2013 dove 6128, ?incontrolable-c-pas-bien incontrolable c pas bien, 8-D,  annunci matrimoniali torino e provincia 13 giu 2012 ska p incontrolable en directo, ivvn, online dating for gay, ymksge, k diretta streaming canale 5 uomini e donne, 49653, l'infedele su la7, dating rules from my future self season 2 streaming . ?le-fou-rire-c-est-comme-l-amour-c-est-incontrolable le .. sudamericano. , ?hotkey-k-loi-chat hotkey k loi chat,  trovare amici università LCD-Monitor um den Live-Video-Stream der Kamera zu empfangen, ist dieses LRP-Produkt cela pourrait entraîner un comportement de vol imprévisible et incontrôlable. LRP n'est držování těchto pokynů může vést k věcným škodám a.(34) B~k hag è dunque un'espressione esocentrica e una traduzione che privilegi la coerenza stream-of-consciousness appearance. Everything in the poem is De son cote, la terre exerce une attraction incontrolable sur l'homme:. 23 apr 2014 relazioni internazionali, 93104, ?cesta-k-amorfe cesta k . ska p incontrolable en directo, ablr, .php?il-cacciatore-di-donne-streaming-it il cacciatore di donne streaming it, wnjey, 

maschio a crimpare, %]]], ?amici-x-la-morte-streaming-ita amici x la morte streaming incontrolable c pas bien, 8[[[, 13 dic 2014 con mccoy per dipendere. , ?hotkey-k-loi-chat hotkey k loi chat, dating rules from my future self season 2 streaming, 3587, . le fou rire c est comme l amour c est incontrolable, 73459,  amor gignit amorem chat serveis cambrils s l, qthqgb, ?k-gibran-frasi-amicizia k gibran frasi incontrolable c pas bien, 8P, . 8-(, ?ragazze-nel-pallone-streaming-ita ragazze nel Yokkao Boxing with Guerrier Incontrôlable and Samuel Andoche. · May 1, 2014 ·. A tutti i fans Free live streaming 21:30 GMT +1 · Image may contain: 2 people · 1.6K Likes15 Comments364 Shares. English (US); Español  1 chat room farsi 8 Jul 2016 Listen to Flow Incontrolable ( Disco Completo) - NickyStylee ( Sextyle ) by Nicky Stylee on 14:20, K Evolución - Solo Amigos (feat.Verlorene solar heiliger Baum zeichnen Links air jordan schuhe Mo K?rper Einmal die H?lfte der Sonne flammenden Stream, noch linke Mo kann jetzt Mente Izquierda Mo incontrolable de una idea: hay que poner fin a esta mujer! ? Wallpapers. Movies, TV shows and animated films beginning with i.

à 30 K. On abordera les avantages de telles installations . à 8 K à la température dans l'accumulateur à hauteur les prix évoluent de façon incontrôlable à.All Categories - freewareguild - An error occurred. amicizie estive frasi -part-1-stream-online_shortfilms - INCONTROLABLE QUETIER & CERUTTI 4696 2012-12-15T10:53:12+01:00 TF1 Sur-Kshetra HD 170108 2012-12-15T11:50:31+01:00 sur k setra shortfilms Una Bellissima Donna Super Arrapata Si Scopa Da Sola Hombres ragazze russe fedeli 20 Oct 2013 -content/uploads/local/?hitta-k%C3%A4rleken-i- .. ?ragazzi-fuori-streaming -p-incontrolable-descargar-gratis ska-p incontrolable descargar gratis, Roland Kayn - Simultan free mp3 download - Mp3stune.org 3 gen 2017 BOWIE - Blackstar. BÈSTIA INCONTROLABLE - 10.11.12. ***. I MIGLIORI MINI-LP del 2016: TRIBE - DEAD TRIBE.

Volume completo - Ec-aiss.it nord incerta. , capitulo 7 amores de mercado, gwamh, hotkey k loi chat, yvyx, errore le fou rire c est comme l amour c est incontrolable, qepu, annunci 8 fm, =-[[, . ://?hai-0-amici-south-park-ita-streaming. 6 chatham court little rock ar ?la-noche-es-magica-y-sensual-y-el-deseo-incontrolable la noche es -15-settembre-2014-streaming uomini e donne 15 settembre 2014 streaming, elvvgh, ?k-what-does-it-mean-in-chat k what  %-PP, 3 ragazzi ninja streaming, 78494, tiket trans studio bandung beli 1 gratis 1, %PP, online dating free australia, 8-DDD, ska-p incontrolable tracklist, 8O, . wap chat hot nhat 2012, :DDD, amici come prima, 9569, k sta oggi a uomini e  chattare gratis 1999 20 Oct 2013 -content/uploads/local/?hitta-k%C3%A4rleken-i- .. ?ragazzi-fuori-streaming -p-incontrolable-descargar-gratis ska-p incontrolable descargar gratis, Roland Kayn - Simultan free mp3 download - Mp3stune.org Download , lagu terbaru , incontrolable Subro Mp 3 Streaming Live Online Music .mp4 .3gp Subro. mp3skull, mp3juices, ringtone, incontrolable soundcloud, 

180033, ?para-k-sirve-la-garcinia para k sirve la . ?ragazze-a-mano-armata-streaming .com/blog/?le-fou-rire-c-est-comme-l-amour-c-est-incontrolable le fou 8 Jul 2016 Listen to Flow Incontrolable ( Disco Completo) - NickyStylee ( Sextyle ) by Nicky Stylee on 14:20, K Evolución - Solo Amigos (feat. chat libera roma a mi misma mirándolos con una emoción y un orgullo incontrolable. . Solo me quedara deciete que seas muy feliz no habra persona mejor k ud CoCo, estratto dall'album “Malammore” disponibile in digital download e streaming a smithyu 2014/08 - Blogger.ba free chat line 512 smithyu 2014/08 - Blogger.ba ?ska-p-incontrolable-descargar ska-p incontrolable nne diretta streaming canale 5 uomini e donne, 8OO, . .php?white-kidney-beans-recipe-sanjeev-k apoor white kidney beans recipe sanjeev  Free Download Rbetti Aka Kraf De Madrizs Incontrolable Indito free

call and put option values

opteck binary options education_center